盘乐网

 找回密码
 加入论坛

QQ登录

只需一步,快速开始

查看: 2325|回复: 146

[WEB-DL] [百度][香港][1994][火云传奇][国粤双语特效中英][ MKV/3.25G][ 1080P X265 10bit-VAST]

  [复制链接]

主题
30
活跃值
1488
热心值
10
盘币
292
注册时间
2016-4-15
最后登录
2020-4-3
在线时间
94 小时
发表于 2018-12-21 08:33:16 | 显示全部楼层 |阅读模式
请尊重分享者,本资源仅限交流未经楼主同意严禁转载或盈利,违者封号处理!
以上来自发布者的原话,下面为楼主的看法,因该片有最近很喜欢的“叶全真”女神,洗版过N次,有WEB-DLHDTVDVD等,始终都不太满意(码率太低画面细节不够色调不够自然背景噪点太多或者有台标剧情有删减没有国粤双语没有一个好字幕.....)直楼主到看到这个x265 10bitWEB-DL的版本,以上所有问题基本得到了解决,楼主也认同这个就是目前全网兼顾画质体积平衡的最佳版本,没有之一
183427l1uw7ww5s1irsk7j.jpg

※※※※※※※ 影片信息 ※※※※※※※
◎译  名 火云传奇/火龙风云
◎片  名 火雲傳奇
◎年  代 1994
◎国  家 香港
◎类  别 喜剧/动作/武侠/古装
◎语  言 国粤语
◎上映日期 1994-08-13
◎IMDb评分  6.2/10 from 160 users
◎IMDb链接  http://www.imdb.com/title/tt0109803/
◎豆瓣评分 6.3/10 from 3,300 users
◎豆瓣链接 http://movie.douban.com/subject/1293518/
◎片  长 90 分钟
◎导  演 袁和平
◎主  演 林青霞
      吴君如
      莫少聪
      巫刚 Gang Wu
      叶全真
      单立文 Pal Sinn


◎简  介

    当朝六王爷(单立文 饰)勾连土番,意图不轨。陇北节度使截获六王爷通外密信一封,遭六王爷座下两大宠幸刺客之一的“火云邪神”映霞(林青霞 饰)追杀,节度使遇刺前将密信、虎符交托亲弟玄明(莫少聪 饰),玄明避难一杂技班中,班主莲容(吴君如 饰)癫狂泼辣,爱慕玄明却不见容,只得藏起虎符强留。

  莲容之兄阿镇(巫刚 饰)身为相国护卫,武艺高强。火云邪神行刺相国却不敌玄明阿镇联手,火云邪神为取回密信遂乔装普通民女混入戏班,潜伏日久,被戏班内平和亲切的氛围打动,但六王爷与另一刺客映雪(叶全真 饰)的耐心已到达了极限……


※※※※※※※ 参数信息 ※※※※※※※ (1080P参数)
  • General
  • Complete name                  : H:\火云传奇.mkv
  • Format                         : Matroska
  • Format version                 : Version 4
  • File size                      : 3.23 GiB
  • Duration                       : 1 h 26 min
  • Overall bit rate               : 5 331 kb/s
  • Movie name                     : VAST 制作
  • Encoded date                   : UTC 2018-10-20 06:32:46
  • Writing application            : mkvmerge v7.3.0 ('Nouages') 32bit built on Oct 22 2014 18:44:01
  • Writing library                : libebml v1.3.0 + libmatroska v1.4.1
  • Video
  • ID                             : 1
  • Format                         : HEVC
  • Format/Info                    : High Efficiency Video Coding
  • Format profile                 : Main 10@L4@High
  • Codec ID                       : V_MPEGH/ISO/HEVC
  • Duration                       : 1 h 26 min
  • Bit rate                       : 5 200 kb/s
  • Width                          : 1 920 pixels
  • Height                         : 1 080 pixels
  • Display aspect ratio           : 16:9
  • Frame rate mode                : Constant
  • Frame rate                     : 25.000 FPS
  • Color space                    : YUV
  • Chroma subsampling             : 4:2:0
  • Bit depth                      : 10 bits
  • Bits/(Pixel*Frame)             : 0.100
  • Stream size                    : 3.15 GiB (98%)
  • Language                       : Chinese
  • Default                        : Yes
  • Forced                         : No
  • Audio #1
  • ID                             : 2
  • Format                         : AAC LC
  • Format/Info                    : Advanced Audio Codec Low Complexity
  • Codec ID                       : A_AAC-2
  • Duration                       : 1 h 26 min
  • Bit rate                       : 64.0 kb/s
  • Channel(s)                     : 1 channel
  • Channel layout                 : C
  • Sampling rate                  : 48.0 kHz
  • Frame rate                     : 46.875 FPS (1024 SPF)
  • Compression mode               : Lossy
  • Delay relative to video        : 9 ms
  • Stream size                    : 39.7 MiB (1%)
  • Title                          : 国语
  • Language                       : Chinese
  • Default                        : Yes
  • Forced                         : No
  • Audio #2
  • ID                             : 3
  • Format                         : AAC LC
  • Format/Info                    : Advanced Audio Codec Low Complexity
  • Codec ID                       : A_AAC-2
  • Duration                       : 1 h 26 min
  • Bit rate                       : 64.0 kb/s
  • Channel(s)                     : 2 channels
  • Channel layout                 : L R
  • Sampling rate                  : 48.0 kHz
  • Frame rate                     : 46.875 FPS (1024 SPF)
  • Compression mode               : Lossy
  • Delay relative to video        : 9 ms
  • Stream size                    : 39.7 MiB (1%)
  • Title                          : 粤语
  • Language                       : Chinese
  • Default                        : No
  • Forced                         : No
  • Text #1
  • ID                             : 4
  • Format                         : ASS
  • Codec ID                       : S_TEXT/ASS
  • Codec ID/Info                  : Advanced Sub Station Alpha
  • Duration                       : 1 h 23 min
  • Bit rate                       : 222 b/s
  • Count of elements              : 1172
  • Compression mode               : Lossless
  • Stream size                    : 137 KiB (0%)
  • Title                          : 特效双显
  • Language                       : Chinese
  • Default                        : Yes
  • Forced                         : No
  • Text #2
  • ID                             : 5
  • Format                         : UTF-8
  • Codec ID                       : S_TEXT/UTF8
  • Codec ID/Info                  : UTF-8 Plain Text
  • Duration                       : 1 h 23 min
  • Bit rate                       : 43 b/s
  • Count of elements              : 1172
  • Stream size                    : 26.8 KiB (0%)
  • Title                          : 简体中文
  • Language                       : Chinese
  • Default                        : No
  • Forced                         : No
  • Text #3
  • ID                             : 6
  • Format                         : UTF-8
  • Codec ID                       : S_TEXT/UTF8
  • Codec ID/Info                  : UTF-8 Plain Text
  • Duration                       : 1 h 23 min
  • Bit rate                       : 48 b/s
  • Count of elements              : 1172
  • Stream size                    : 29.7 KiB (0%)
  • Title                          : 英文
  • Language                       : Chinese
  • Default                        : No
  • Forced                         : No

[color=rgb(51, 102, 153) !important]复制代码

174310mrk6159g4g779u1s.jpg
174337y3xwa5ns3cn71sks.jpg
174329x24gtgsg0r0yfs0a.jpg
174400oxx7eaaiak9e0p7z.jpg
该资源为WEB-DL修复版。配置为:1080P x265 10bit 国粤双语 特效中英字幕完美
链接:
点击进入百度云下载(←购买前请先验证分享链接是否有效)



此处内容付费可见

此处内容需要向楼主支付盘币或购买VIP才能显示 已有 123 人购买 

支付 8 盘币 升级VIP
免责申明 - 论坛版权1、本站所有资源均来自会员分享或网络收集整理,仅供会员交流学习,禁用商业用途或盈利,下载后请在24小时之内删除;
2、本站(www.pan6.com)支持正版,本资源版权归版权方所有,观看或阅读请到相应机构购买正版资源;
3、本站资源均来源于网络,本站不参与录制、上传,如本帖侵犯到任何版权问题,请立即告知本站(admin#pan6.com(#=@)),本站将及时予与删除并致以最深的歉意;
BT资源无法下载:戳这里,不会发帖、金币相关等新手问题:戳这里
回复

使用道具 举报

为保留有用回复信息,此处有 123 个购买者的感谢留言已隐藏

主题
3416
活跃值
19348
热心值
763
盘币
162141
注册时间
2016-8-28
最后登录
2020-4-3
在线时间
1051 小时

爱心满满长期在线阳光心情老会员勋章鼎力支持优秀会员荣誉会员动漫达人普通精华功不可没资源组成员夜猫子灌水之王我是土豪

发表于 2018-12-21 09:17:20 | 显示全部楼层
叶全真女神的作品 一定要买啊
云盘大元帅万岁万岁万万岁!!! ...
回复

使用道具 举报

主题
1
活跃值
349
热心值
0
盘币
191
注册时间
2018-2-1
最后登录
2020-4-3
在线时间
40 小时
发表于 2018-12-21 09:19:32 | 显示全部楼层
叶全真,真女神。。。
回复

使用道具 举报

主题
0
活跃值
146
热心值
0
盘币
24
注册时间
2017-1-27
最后登录
2019-4-16
在线时间
4 小时
发表于 2018-12-21 09:35:34 | 显示全部楼层
这个资源真是太妙了
回复

使用道具 举报

主题
10
活跃值
1891
热心值
5
盘币
176
注册时间
2017-12-14
最后登录
2020-4-3
在线时间
143 小时
发表于 2018-12-21 10:10:31 | 显示全部楼层
收下了  谢谢
回复

使用道具 举报

主题
0
活跃值
2950
热心值
0
盘币
8
注册时间
2017-1-26
最后登录
2020-4-3
在线时间
132 小时
发表于 2018-12-21 14:59:54 | 显示全部楼层
下载欣赏。感谢楼主
回复

使用道具 举报

主题
0
活跃值
727
热心值
0
盘币
27
注册时间
2018-6-8
最后登录
2020-3-28
在线时间
147 小时
发表于 2018-12-21 19:42:35 来自手机 | 显示全部楼层
感谢楼主的无私奉献
回复

使用道具 举报

主题
4
活跃值
2367
热心值
0
盘币
39
注册时间
2017-8-29
最后登录
2020-4-3
在线时间
41 小时
发表于 2018-12-29 20:50:43 | 显示全部楼层
确实目前是体积和画质的完美兼顾版本
回复

使用道具 举报

主题
0
活跃值
665
热心值
0
盘币
68
注册时间
2016-12-16
最后登录
2020-4-3
在线时间
42 小时
发表于 2018-12-30 19:40:37 | 显示全部楼层
谢谢了,非常感谢
回复

使用道具 举报

主题
0
活跃值
152
热心值
0
盘币
808
注册时间
2018-6-4
最后登录
2020-4-3
在线时间
59 小时
发表于 2019-1-4 23:49:09 | 显示全部楼层
谢谢楼主,非常喜欢。
回复

使用道具 举报

主题
2
活跃值
1761
热心值
1
盘币
361
注册时间
2017-12-18
最后登录
2020-4-4
在线时间
38 小时
发表于 2019-1-7 18:03:59 | 显示全部楼层
这个不错,就是结局不够完美!
回复

使用道具 举报

主题
1
活跃值
220
热心值
2
盘币
24
注册时间
2014-5-12
最后登录
2019-4-29
在线时间
10 小时
发表于 2019-1-11 21:48:07 | 显示全部楼层
火云传奇火云传奇火云传奇
回复

使用道具 举报

主题
8
活跃值
3194
热心值
7
盘币
2876
注册时间
2017-10-28
最后登录
2020-4-3
在线时间
37 小时

老会员勋章爱心满满阳光心情灌水之王

发表于 2019-1-18 16:10:32 | 显示全部楼层
我喜欢叶全真
回复

使用道具 举报

主题
0
活跃值
498
热心值
2
盘币
8
注册时间
2018-5-6
最后登录
2019-10-25
在线时间
36 小时
发表于 2019-2-17 11:42:03 | 显示全部楼层
林青霞是女神
回复

使用道具 举报

主题
0
活跃值
5754
热心值
0
盘币
2304
注册时间
2016-8-5
最后登录
2020-4-3
在线时间
96 小时
发表于 2019-4-13 18:32:43 | 显示全部楼层
感谢发布,支持分享!
回复

使用道具 举报

主题
5
活跃值
1365
热心值
0
盘币
1588
注册时间
2018-6-6
最后登录
2020-4-3
在线时间
63 小时
发表于 2019-4-20 18:56:11 | 显示全部楼层
一套被遗忘电影
回复

使用道具 举报

主题
2
活跃值
2158
热心值
3
盘币
381
注册时间
2018-1-11
最后登录
2020-4-2
在线时间
18 小时
发表于 2019-4-30 08:05:41 | 显示全部楼层

谢谢你的分享
回复

使用道具 举报

主题
0
活跃值
969
热心值
0
盘币
3
注册时间
2014-11-29
最后登录
1970-1-1
在线时间
42 小时
发表于 2019-4-30 15:53:17 | 显示全部楼层
感谢找到了
回复

使用道具 举报

主题
6
活跃值
1613
热心值
1
盘币
2133
注册时间
2017-11-2
最后登录
2019-9-27
在线时间
169 小时
发表于 2019-5-4 14:28:12 | 显示全部楼层
楼主很聪明写成了3.25G,如果他写3.23就没人买了!!!还有  剧情有删减、没有国粤双语、没有一个好字幕.....)直楼主到看到这个x265 10bit的WEB-DL的版本,以上所有问题基本得到了解决      解决了什么?这个删减了五分钟
回复

使用道具 举报

主题
2
活跃值
620
热心值
4
盘币
1661
注册时间
2017-11-19
最后登录
2020-3-8
在线时间
48 小时
发表于 2019-5-18 15:10:32 | 显示全部楼层
本帖最后由 jokmapg 于 2019-5-18 15:12 编辑

码率很高,但是片长不对,又是删减版
回复

使用道具 举报

回帖须知
本站严禁灌水以及讽刺辱骂分享者的行为,轻者扣除热心值,热心值低于-5将不能发布任何信息,重者直接永久封禁。发帖前请详读:点击进入 。以免永久封禁。
您需要登录后才可以回帖 登录 | 加入论坛

本版积分规则

免责声明:本站所有资源均收集自互联网,没有提供影片资源存储,也未参与录制、上传。若本站收录的资源涉及您的版权或知识产权或其他利益,请附上版权证明邮件告知,在收到邮件后24小时内删除。

Copyright © 2012 [盘乐网] 管理员邮箱:admin#pan6.com(#=@)

站长信箱|sitemap|手机版|小黑屋|百度统计|盘乐网 ( 粤ICP备18120611号 )

快速回复 返回顶部 返回列表