盘乐网

 找回密码
 加入论坛

QQ登录

只需一步,快速开始

查看: 197|回复: 0

[恐怖] [日本][1959][东海道四谷怪谈][天知茂、若杉嘉津子][DVD压制][日语中字][mkv/700m]

[复制链接]

主题
22
活跃值
1551
热心值
9
盘币
44
注册时间
2016-10-2
最后登录
2019-11-14
在线时间
198 小时

阳光心情老会员勋章长期在线

发表于 2019-8-15 20:39:24 | 显示全部楼层 |阅读模式
请尊重分享者,本资源仅限交流未经楼主同意严禁转载或盈利,违者封号处理!


江户时期的剧作家鹤屋南北(1755-1829)曾依东海道四谷(东京新宿区四谷)的民间传说创作歌舞伎名剧《东海道四谷怪谈》,讲述一个被丈夫抛弃并杀害的苦命女子阿岩化作怨灵复仇的故事。
阿岩是日本最有名的女鬼之一,她的传说起源于东京四谷的阿岩稲荷神社所留下的文献。简单说来,是一个被丈夫抛弃并杀害的苦命女子化为怨灵复仇的故事。后世人创作出了形形色色的关于阿岩的作品。其中四世鹤屋南北的《东海道四谷怪谈》最为著名。

General
Unique ID                      : 251343941623529981926594496720439577424 (0xBD171514F9ABF5AD8DADD91931C78B50)
Complete name                  : C:\Users\Administrator\Desktop\东海道四谷怪谈.Ghost.of.Yotsuya.1959.DVDRip.mkv
Format                         : Matroska
Format version                 : Version 4
File size                      : 694 MiB
Duration                       : 1 h 16 min
Overall bit rate               : 1 267 kb/s
Encoded date                   : UTC 2019-08-14 14:37:40
Writing application            : mkvmerge v35.0.0 ('All The Love In The World') 64-bit
Writing library                : libebml v1.3.9 + libmatroska v1.5.2


Video
ID                             : 1
Format                         : MPEG-4 Visual
Format profile                 : Advanced Simple@L5
Format settings, BVOP          : No
Format settings, QPel          : No
Format settings, GMC           : No warppoints
Format settings, Matrix        : Default (H.263)
Codec ID                       : V_MS/VFW/FOURCC / XVID
Codec ID/Hint                  : XviD
Duration                       : 1 h 16 min
Bit rate                       : 1 185 kb/s
Width                          : 656 pixels
Height                         : 288 pixels
Display aspect ratio           : 2.25:1
Frame rate mode                : Constant
Frame rate                     : 23.976 (23976/1000) FPS
Color space                    : YUV
Chroma subsampling             : 4:2:0
Bit depth                      : 8 bits
Scan type                      : Progressive
Compression mode               : Lossy
Bits/(Pixel*Frame)             : 0.262
Stream size                    : 649 MiB (94%)
Writing library                : XviD 1.1.0 Beta2 (UTC 2005-04-04)
Default                        : Yes
Forced                         : No


Audio
ID                             : 2
Format                         : MPEG Audio
Format version                 : Version 1
Format profile                 : Layer 3
Codec ID                       : A_MPEG/L3
Codec ID/Hint                  : MP3
Duration                       : 1 h 16 min
Bit rate mode                  : Constant
Bit rate                       : 80.0 kb/s
Channel(s)                     : 1 channel
Sampling rate                  : 48.0 kHz
Frame rate                     : 41.667 FPS (1152 SPF)
Compression mode               : Lossy
Stream size                    : 43.8 MiB (6%)
Default                        : Yes
Forced                         : No


Text #1
ID                             : 3
Format                         : ASS
Codec ID                       : S_TEXT/ASS
Codec ID/Info                  : Advanced Sub Station Alpha
Duration                       : 1 h 16 min
Bit rate                       : 60 b/s
Count of elements              : 658
Compression mode               : Lossless
Stream size                    : 33.7 KiB (0%)
Title                          : 特效
Default                        : Yes
Forced                         : No


Text #2
ID                             : 4
Format                         : UTF-8
Codec ID                       : S_TEXT/UTF8
Codec ID/Info                  : UTF-8 Plain Text
Duration                       : 1 h 16 min
Bit rate                       : 35 b/s
Count of elements              : 658
Stream size                    : 20.1 KiB (0%)
Title                          : 普通
Default                        : No
Forced                         : No


批注 2019-08-15 203026.png 批注 2019-08-15 203102.png

链接:YPSuperKey Checked
点击进入百度云下载(←购买前请先验证分享链接是否有效)

此处内容付费可见

此处内容需要向楼主支付盘币或购买VIP才能显示

支付 8 盘币 升级VIP
免责申明 - 论坛版权1、本站所有资源均来自会员分享或网络收集整理,仅供会员交流学习,禁用商业用途或盈利,下载后请在24小时之内删除;
2、本站(www.pan6.com)支持正版,本资源版权归版权方所有,观看或阅读请到相应机构购买正版资源;
3、本站资源均来源于网络,本站不参与录制、上传,如本帖侵犯到任何版权问题,请立即告知本站(admin#pan6.com(#=@)),本站将及时予与删除并致以最深的歉意;
BT资源无法下载:戳这里,不会发帖、金币相关等新手问题:戳这里
回复

使用道具 举报

您需要登录后才可以回帖 登录 | 加入论坛

本版积分规则

免责声明:本站所有资源均收集自互联网,没有提供影片资源存储,也未参与录制、上传。若本站收录的资源涉及您的版权或知识产权或其他利益,请附上版权证明邮件告知,在收到邮件后24小时内删除。

Copyright © 2012 [盘乐网] 管理员邮箱:admin#pan6.com(#=@)

站长信箱|sitemap|手机版|小黑屋|百度统计|盘乐网 ( 粤ICP备18120611号 )

快速回复 返回顶部 返回列表