盘乐网

 找回密码
 加入论坛

QQ登录

只需一步,快速开始

查看: 284|回复: 22

[杂谈] 自己封装了一个9音轨10字幕的4K泰坦尼克号,有感兴趣的吗(笑

[复制链接]

主题
58
活跃值
619
热心值
20
盘币
293
注册时间
2017-8-5
最后登录
2019-10-21
在线时间
418 小时
发表于 2019-10-7 07:55:25 | 显示全部楼层 |阅读模式
本帖最后由 皓月鳴響 于 2019-10-7 10:33 编辑

上次无聊发了个beAst小组压制的多音轨版本和4K版的对比,然后再次无聊用MKVToolnix重封了一下。。。4K版本来有4条AAC音轨(英语+三国语)和三条字幕(两文本一图形,图形字幕对应12国配),只保留视频主体和图形字幕(beAst版没有12国配的字幕),beAst压制版除了视频外全部保留(里面还有个章节文件也封进去了),两版时长帧率都一样,所以可以完美契合。beAst的版本98国配和12国配的标题写错了(写98的是12,写12的是98),我又把它改了回来。现在就得到一个多音轨多字幕的4K版了,两版的优势被整合在一起了。封装完毕后大小为26G多(视频只占8.3G,大部分体积是三条DTS音轨的锅,每条音轨5G{:8_317:}),已分卷压缩正在上传 百度网盘-全部文件.png ,希望网速今天争点气,能在今天上传完视频详细信息:
GeneralUnique ID                      : 170550600215525949235337317893620523911 (0x804ED9CDF3BD49D9877C15DF3E8E6387)
Complete name                  : E:\杂项\[UHDrip-4K.2160p MKV][TITANIC][1997][4K 16:9满屏高清重封装版][9音轨10软图形字幕][MOVIE][Joy][th71@beAst][MoonRings]\Titanic.1997.UHDrip.4K-2160P.SDR.HEVC.3DTS-HD.MA.5.1+6AC3.10SUP-Joy&MR.mkv
Format                         : Matroska
Format version                 : Version 4
File size                      : 27.0 GiB
Duration                       : 3 h 14 min
Overall bit rate mode          : Variable
Overall bit rate               : 19.8 Mb/s
Encoded date                   : UTC 2019-10-06 07:03:22
Writing application            : mkvmerge v36.0.0 ('Is That Jazz?') 64-bit
Writing library                : libebml v1.3.9 + libmatroska v1.5.2
Cover                          : Yes
Attachments                    : cover.jpg


Video
ID                             : 19
Format                         : HEVC
Format/Info                    : High Efficiency Video Coding
Format profile                 : Main 10@L5@Main
Codec ID                       : V_MPEGH/ISO/HEVC
Duration                       : 3 h 14 min
Bit rate                       : 6 024 kb/s
Width                          : 3 840 pixels
Height                         : 2 160 pixels
Display aspect ratio           : 16:9
Frame rate mode                : Constant
Frame rate                     : 23.976 (24000/1001) FPS
Color space                    : YUV
Chroma subsampling             : 4:2:0
Bit depth                      : 10 bits
Bits/(Pixel*Frame)             : 0.030
Stream size                    : 8.20 GiB (30%)
Writing library                : x265 3.0_Au+24-4217e691387c:[Windows][GCC 9.1.1][64 bit] 10bit
Encoding settings              : rc=abr / bitrate=6000 / qcomp=0.50 / qpstep=4 / stats-write=0 / stats-read=0 / qpmax=69 / qpmin=0 / no-lossless / no-cu-lossless / no-hevc-aq / no-aq-motion / aq-mode=3 / aq-strength=0.80 / cbqpoffs=0 / crqpoffs=0 / ipratio=1.40 / pbratio=1.30 / psy-rd=0.00 / psy-rdoq=1.35 / deblock=0:0 / ref=4 / limit-refs=3 / limit-modes / bframes=8 / b-adapt=2 / bframe-bias=40 / b-pyramid / no-b-intra / weightp / no-weightb / keyint=250 / min-keyint=23 / rc-lookahead=80 / gop-lookahead=0 / scenecut=40 / scenecut-bias=0.05 / ctu=64 / min-cu-size=8 / me=3 / subme=3 / merange=57 / rd=4 / no-rd-refine / ssim-rd / dynamic-rd=0.00 / rdoq-level=2 / rdpenalty=0 / cutree / sao / limit-sao / no-sao-non-deblock / no-rect / no-amp / open-gop / max-tu-size=32 / tu-inter-depth=1 / tu-intra-depth=1 / limit-tu=0 / qg-size=32 / wpp / no-pmode / no-pme / no-psnr / ssim / no-tskip / constrained-intra / strong-intra-smoothing / max-merge=3 / nr-intra=0 / nr-inter=0 / input-csp=1 / input-res=3840x2160 / interlace=0 / total-frames=280390 / level-idc=0 / high-tier=1cpuid=1111039 / frame-threads=4 / numa-pools=16 / log-level=2 / uhd-bd=0 / lookahead-slices=4 / radl=0 / no-splice / no-intra-refresh / signhide / temporal-mvp / no-analyze-src-pics / early-skip / rskip / no-fast-intra / no-tskip-fast / splitrd-skip / zone-count=0 / no-strict-cbr / no-rc-grain / no-const-vbv / no-allow-non-conformance / no-repeat-headers / annexb / no-aud / no-hrd / info / hash=0 / no-temporal-layers / sar=0 / overscan=0 / videoformat=5 / range=0 / colorprim=2 / transfer=2 / colormatrix=2 / chromaloc=0 / display-window=0 / max-cll=0,0 / min-luma=0 / max-luma=1023 / log2-max-poc-lsb=8 / vui-timing-info / vui-hrd-info / slices=1 / no-opt-qp-pps / no-opt-ref-list-length-pps / multi-pass-opt-rps / no-opt-cu-delta-qp / no-hdr / no-hdr-opt / no-dhdr10-opt / no-idr-recovery-sei / analysis-reuse-level=10 / scale-factor=0 / refine-intra=0 / refine-inter=0 / refine-mv=0 / refine-ctu-distortion=0 / ctu-info=0 / no-lowpass-dct / refine-analysis-type=0 / copy-pic=1 / max-ausize-factor=1.0 / no-dynamic-refine / no-single-sei / no-svt / qp-adaptation-range=1.00
Language                       : English
Default                        : Yes
Forced                         : No


Audio #1
ID                             : 1
Format                         : DTS XLL
Format/Info                    : Digital Theater Systems
Commercial name                : DTS-HD Master Audio
Codec ID                       : A_DTS
Duration                       : 3 h 14 min
Bit rate mode                  : Variable
Bit rate                       : 3 890 kb/s
Channel(s)                     : 6 channels
Channel layout                 : C L R Ls Rs LFE
Sampling rate                  : 48.0 kHz
Frame rate                     : 93.750 FPS (512 SPF)
Bit depth                      : 24 bits
Compression mode               : Lossless
Stream size                    : 5.30 GiB (20%)
Title                          : English DTS-HD Master Audio 5.1 @ 3794 kbps
Language                       : English
Default                        : Yes
Forced                         : No


Audio #2
ID                             : 2
Format                         : DTS XLL
Format/Info                    : Digital Theater Systems
Commercial name                : DTS-HD Master Audio
Codec ID                       : A_DTS
Duration                       : 3 h 14 min
Bit rate mode                  : Variable
Bit rate                       : 3 824 kb/s
Channel(s)                     : 6 channels
Channel layout                 : C L R Ls Rs LFE
Sampling rate                  : 48.0 kHz
Frame rate                     : 93.750 FPS (512 SPF)
Bit depth                      : 24 bits
Compression mode               : Lossless
Stream size                    : 5.20 GiB (19%)
Title                          : Mandarin DTS-HD Master Audio 5.1 @ 3730 kbps  2012版中影重映国语 by jack70
Language                       : Chinese
Default                        : No
Forced                         : No


Audio #3
ID                             : 3
Format                         : DTS XLL
Format/Info                    : Digital Theater Systems
Commercial name                : DTS-HD Master Audio
Codec ID                       : A_DTS
Duration                       : 3 h 14 min
Bit rate mode                  : Variable
Bit rate                       : 3 835 kb/s
Channel(s)                     : 6 channels
Channel layout                 : C L R Ls Rs LFE
Sampling rate                  : 48.0 kHz
Frame rate                     : 93.750 FPS (512 SPF)
Bit depth                      : 24 bits
Compression mode               : Lossless
Stream size                    : 5.22 GiB (19%)
Title                          : Mandarin DTS-HD Master Audio 5.1 @ 3737 kbps  1998版北影公映国语 by jack70
Language                       : Chinese
Default                        : No
Forced                         : No


Audio #4
ID                             : 4
Format                         : AC-3
Format/Info                    : Audio Coding 3
Commercial name                : Dolby Digital
Codec ID                       : A_AC3
Duration                       : 3 h 14 min
Bit rate mode                  : Constant
Bit rate                       : 448 kb/s
Channel(s)                     : 6 channels
Channel layout                 : L R C LFE Ls Rs
Sampling rate                  : 48.0 kHz
Frame rate                     : 31.250 FPS (1536 SPF)
Bit depth                      : 16 bits
Compression mode               : Lossy
Stream size                    : 625 MiB (2%)
Title                          : Mandarin Dolby Digital Audio 5.1 @ 448 kbps  六区德加拉京译国配
Language                       : Chinese
Service kind                   : Complete Main
Default                        : No
Forced                         : No


Audio #5
ID                             : 5
Format                         : AC-3
Format/Info                    : Audio Coding 3
Commercial name                : Dolby Digital
Codec ID                       : A_AC3
Duration                       : 3 h 14 min
Bit rate mode                  : Constant
Bit rate                       : 192 kb/s
Channel(s)                     : 2 channels
Channel layout                 : L R
Sampling rate                  : 48.0 kHz
Frame rate                     : 31.250 FPS (1536 SPF)
Bit depth                      : 16 bits
Compression mode               : Lossy
Stream size                    : 268 MiB (1%)
Title                          : Cantonese Dolby Digital Audio 2.0 @ 192 kbps  TVB粤语
Language                       : Chinese
Service kind                   : Complete Main
Default                        : No
Forced                         : No


Audio #6
ID                             : 6
Format                         : AC-3
Format/Info                    : Audio Coding 3
Commercial name                : Dolby Digital
Codec ID                       : A_AC3
Duration                       : 3 h 14 min
Bit rate mode                  : Constant
Bit rate                       : 640 kb/s
Channel(s)                     : 6 channels
Channel layout                 : L R C LFE Ls Rs
Sampling rate                  : 48.0 kHz
Frame rate                     : 31.250 FPS (1536 SPF)
Bit depth                      : 16 bits
Compression mode               : Lossy
Stream size                    : 892 MiB (3%)
Title                          : English Dolby Digital Audio 5.1 @ 640 kbps  describe
Language                       : English
Service kind                   : Complete Main
Default                        : No
Forced                         : No


Audio #7
ID                             : 7
Format                         : AC-3
Format/Info                    : Audio Coding 3
Commercial name                : Dolby Digital
Codec ID                       : A_AC3
Duration                       : 3 h 14 min
Bit rate mode                  : Constant
Bit rate                       : 224 kb/s
Channel(s)                     : 2 channels
Channel layout                 : L R
Sampling rate                  : 48.0 kHz
Frame rate                     : 31.250 FPS (1536 SPF)
Bit depth                      : 16 bits
Compression mode               : Lossy
Stream size                    : 312 MiB (1%)
Title                          : English Dolby Digital Audio 2.0 @ 224 kbps  Commentary 1
Language                       : English
Service kind                   : Complete Main
Default                        : No
Forced                         : No


Audio #8
ID                             : 8
Format                         : AC-3
Format/Info                    : Audio Coding 3
Commercial name                : Dolby Digital
Codec ID                       : A_AC3
Duration                       : 3 h 14 min
Bit rate mode                  : Constant
Bit rate                       : 224 kb/s
Channel(s)                     : 2 channels
Channel layout                 : L R
Sampling rate                  : 48.0 kHz
Frame rate                     : 31.250 FPS (1536 SPF)
Bit depth                      : 16 bits
Compression mode               : Lossy
Stream size                    : 312 MiB (1%)
Title                          : English Dolby Digital Audio 2.0 @ 224 kbps  Commentary 2
Language                       : English
Service kind                   : Complete Main
Default                        : No
Forced                         : No


Audio #9
ID                             : 9
Format                         : AC-3
Format/Info                    : Audio Coding 3
Commercial name                : Dolby Digital
Codec ID                       : A_AC3
Duration                       : 3 h 14 min
Bit rate mode                  : Constant
Bit rate                       : 224 kb/s
Channel(s)                     : 2 channels
Channel layout                 : L R
Sampling rate                  : 48.0 kHz
Frame rate                     : 31.250 FPS (1536 SPF)
Bit depth                      : 16 bits
Compression mode               : Lossy
Stream size                    : 312 MiB (1%)
Title                          : English Dolby Digital Audio 2.0 @ 224 kbps  Commentary 3
Language                       : English
Service kind                   : Complete Main
Default                        : No
Forced                         : No


Text #1
ID                             : 10
Format                         : PGS
Codec ID                       : S_HDMV/PGS
Codec ID/Info                  : Picture based subtitle format used on BDs/HD-DVDs
Duration                       : 3 h 1 min
Bit rate                       : 13.7 kb/s
Count of elements              : 4208
Stream size                    : 17.8 MiB (0%)
Title                          : Eng/SUP
Language                       : English
Default                        : No
Forced                         : No


Text #2
ID                             : 11
Format                         : PGS
Codec ID                       : S_HDMV/PGS
Codec ID/Info                  : Picture based subtitle format used on BDs/HD-DVDs
Duration                       : 3 h 9 min
Bit rate                       : 15.7 kb/s
Count of elements              : 5208
Stream size                    : 21.3 MiB (0%)
Title                          : Eng/SUP  SDH
Language                       : English
Default                        : No
Forced                         : No


Text #3
ID                             : 12
Format                         : PGS
Codec ID                       : S_HDMV/PGS
Codec ID/Info                  : Picture based subtitle format used on BDs/HD-DVDs
Duration                       : 3 h 6 min
Bit rate                       : 17.8 kb/s
Count of elements              : 4186
Stream size                    : 23.7 MiB (0%)
Title                          : Chs/SUP  R3简体
Language                       : Chinese
Default                        : Yes
Forced                         : No


Text #4
ID                             : 13
Format                         : PGS
Codec ID                       : S_HDMV/PGS
Codec ID/Info                  : Picture based subtitle format used on BDs/HD-DVDs
Duration                       : 3 h 10 min
Bit rate                       : 23.5 kb/s
Count of elements              : 3271
Stream size                    : 32.0 MiB (0%)
Title                          : Chs/SUP  对应1998版公映国语简体
Language                       : Chinese
Default                        : No
Forced                         : No


Text #5
ID                             : 14
Format                         : PGS
Codec ID                       : S_HDMV/PGS
Codec ID/Info                  : Picture based subtitle format used on BDs/HD-DVDs
Duration                       : 3 h 13 min
Bit rate                       : 15.5 kb/s
Count of elements              : 4056
Stream size                    : 21.4 MiB (0%)
Title                          : Cht/SUP  原盘繁体(TW)
Language                       : Chinese
Default                        : No
Forced                         : No


Text #6
ID                             : 15
Format                         : PGS
Codec ID                       : S_HDMV/PGS
Codec ID/Info                  : Picture based subtitle format used on BDs/HD-DVDs
Duration                       : 3 h 12 min
Bit rate                       : 18.3 kb/s
Count of elements              : 4144
Stream size                    : 25.2 MiB (0%)
Title                          : Cht/SUP  原盘繁体(HK)
Language                       : Chinese
Default                        : No
Forced                         : No


Text #7
ID                             : 16
Format                         : PGS
Codec ID                       : S_HDMV/PGS
Codec ID/Info                  : Picture based subtitle format used on BDs/HD-DVDs
Duration                       : 3 h 7 min
Bit rate                       : 50.7 kb/s
Count of elements              : 6630
Stream size                    : 67.9 MiB (0%)
Title                          : Chs/SUP  导演评论简体
Language                       : Chinese
Default                        : No
Forced                         : No


Text #8
ID                             : 17
Format                         : PGS
Codec ID                       : S_HDMV/PGS
Codec ID/Info                  : Picture based subtitle format used on BDs/HD-DVDs
Duration                       : 3 h 14 min
Bit rate                       : 54.8 kb/s
Count of elements              : 7108
Stream size                    : 76.2 MiB (0%)
Title                          : Chs/SUP  演职人员评论简体
Language                       : Chinese
Default                        : No
Forced                         : No


Text #9
ID                             : 18
Format                         : PGS
Codec ID                       : S_HDMV/PGS
Codec ID/Info                  : Picture based subtitle format used on BDs/HD-DVDs
Duration                       : 3 h 14 min
Bit rate                       : 46.1 kb/s
Count of elements              : 7546
Stream size                    : 64.1 MiB (0%)
Title                          : Chs/SUP  历史顾问和视觉指导评论简体
Language                       : Chinese
Default                        : No
Forced                         : No


Text #10
ID                             : 20
Format                         : PGS
Codec ID                       : S_HDMV/PGS
Codec ID/Info                  : Picture based subtitle format used on BDs/HD-DVDs
Duration                       : 3 h 7 min
Bit rate                       : 40.0 kb/s
Count of elements              : 4687
Stream size                    : 53.5 MiB (0%)
Title                          : 对应2012版重映国语简体
Language                       : Chinese
Default                        : No
Forced                         : No


Menu
00:00:00.000                   : en:00:00:00.000
00:01:24.376                   : en:00:01:24.376
00:04:39.988                   : en:00:04:39.988
00:08:26.131                   : en:00:08:26.131
00:10:46.771                   : en:00:10:46.771
00:12:52.647                   : en:00:12:52.647
00:16:52.428                   : en:00:16:52.428
00:20:07.748                   : en:00:20:07.748
00:23:38.876                   : en:00:23:38.876
00:26:26.543                   : en:00:26:26.543
00:29:03.367                   : en:00:29:03.367
00:29:37.526                   : en:00:29:37.526
00:34:59.931                   : en:00:34:59.931
00:36:48.623                   : en:00:36:48.623
00:42:59.160                   : en:00:42:59.160
00:45:26.098                   : en:00:45:26.098
00:47:11.620                   : en:00:47:11.620
00:53:33.043                   : en:00:53:33.043
00:56:47.988                   : en:00:56:47.988
01:05:32.053                   : en:01:05:32.053
01:10:19.966                   : en:01:10:19.966
01:14:06.358                   : en:01:14:06.358
01:16:10.691                   : en:01:16:10.691
01:19:59.044                   : en:01:19:59.044
01:22:50.507                   : en:01:22:50.507
01:23:40.056                   : en:01:23:40.056
01:28:21.629                   : en:01:28:21.629
01:29:19.854                   : en:01:29:19.854
01:32:52.275                   : en:01:32:52.275
01:36:59.105                   : en:01:36:59.105
01:44:41.150                   : en:01:44:41.150
01:46:21.041                   : en:01:46:21.041
01:47:58.848                   : en:00:00:00.000
01:50:11.105                   : en:00:02:12.257
01:52:21.402                   : en:00:04:22.554
01:53:54.328                   : en:00:05:55.480
01:55:21.832                   : en:00:07:22.984
01:56:10.881                   : en:00:08:12.033
01:57:53.233                   : en:00:09:54.385
02:06:38.341                   : en:00:18:39.493
02:08:49.973                   : en:00:20:51.125
02:11:22.083                   : en:00:23:23.235
02:15:42.552                   : en:00:27:43.704
02:19:43.459                   : en:00:31:44.611
02:21:24.560                   : en:00:33:25.712
02:25:28.762                   : en:00:37:29.914
02:27:28.423                   : en:00:39:29.575
02:29:07.272                   : en:00:41:08.424
02:29:56.697                   : en:00:41:57.849
02:33:31.536                   : en:00:45:32.688
02:36:52.362                   : en:00:48:53.514
02:38:33.880                   : en:00:50:35.032
02:40:34.667                   : en:00:52:35.819
02:45:00.641                   : en:00:57:01.793
02:47:48.809                   : en:00:59:49.961
02:49:22.528                   : en:01:01:23.680
02:52:09.611                   : en:01:04:10.763
02:53:41.328                   : en:01:05:42.480
02:57:53.497                   : en:01:09:54.649
02:59:35.307                   : en:01:11:36.459
03:01:29.254                   : en:01:13:30.406
03:03:13.650                   : en:01:15:14.802
03:04:57.879                   : en:01:16:59.031
03:07:19.646                   : en:01:19:20.798
发几张上次发过的4K截图
泰坦尼克号.2160p.mkv_20191006_095503.878.jpg 泰坦尼克号.2160p.mkv_20191006_101424.501.jpg 泰坦尼克号.2160p.mkv_20191006_101708.485.jpg 泰坦尼克号.2160p.mkv_20191006_101806.405.jpg 泰坦尼克号.2160p.mkv_20191006_101957.885.jpg

有个签名总是好的~
回复

使用道具 举报

主题
2
活跃值
510
热心值
0
盘币
2712
注册时间
2018-7-6
最后登录
2019-10-21
在线时间
47 小时
发表于 2019-10-7 08:39:32 | 显示全部楼层
留名备用
回复

使用道具 举报

主题
29
活跃值
206
热心值
6
盘币
1853
注册时间
2019-8-26
最后登录
2019-10-22
在线时间
59 小时
发表于 2019-10-7 08:49:12 | 显示全部楼层
没有必要。多国配加1条英语音轨就够了。
回复

使用道具 举报

主题
0
活跃值
579
热心值
0
盘币
11
注册时间
2018-7-27
最后登录
2019-10-20
在线时间
45 小时
发表于 2019-10-7 08:54:47 | 显示全部楼层
谢谢分享,这个也是一个经典了。
回复

使用道具 举报

主题
0
活跃值
815
热心值
0
盘币
140
注册时间
2018-5-13
最后登录
2019-10-21
在线时间
54 小时
发表于 2019-10-7 09:30:58 | 显示全部楼层
我只能说,我看不懂呀这么长
回复

使用道具 举报

主题
0
活跃值
73
热心值
0
盘币
824
注册时间
2019-2-2
最后登录
2019-10-21
在线时间
16 小时
发表于 2019-10-7 09:51:22 | 显示全部楼层
在哪里下载呀?
回复

使用道具 举报

主题
0
活跃值
1635
热心值
0
盘币
282
注册时间
2018-9-13
最后登录
2019-10-21
在线时间
94 小时
发表于 2019-10-7 10:07:27 | 显示全部楼层
不错的东东,希望尽快放出分享!
回复

使用道具 举报

主题
0
活跃值
3742
热心值
0
盘币
330
注册时间
2018-2-7
最后登录
2019-10-22
在线时间
157 小时

老会员勋章长期在线威严满满灌水之王

发表于 2019-10-7 10:09:16 | 显示全部楼层
楼主也是泰坦尼克号迷啊,我之前收藏了一个8语的,也是自己DIY的,但没有楼主的大,也配了好多图形特效字幕。
楼主这个是DTS无损音轨了,确实很掉X,但缺点就是太占空间了,,不过现在大硬盘也不差这点空间了,等待楼主上传好,收藏。
另外白星版的,,也收了个4语 特效图形字幕的。
回复

使用道具 举报

主题
58
活跃值
619
热心值
20
盘币
293
注册时间
2017-8-5
最后登录
2019-10-21
在线时间
418 小时
 楼主| 发表于 2019-10-7 15:59:39 | 显示全部楼层
10个分卷已经上传了5个了。。。到现在才一半,今天要传完估计有点难了
一传完会立刻发出
有个签名总是好的~
回复

使用道具 举报

主题
58
活跃值
619
热心值
20
盘币
293
注册时间
2017-8-5
最后登录
2019-10-21
在线时间
418 小时
 楼主| 发表于 2019-10-8 08:41:38 来自手机 | 显示全部楼层
kk82 发表于 2019-10-7 10:09
楼主也是泰坦尼克号迷啊,我之前收藏了一个8语的,也是自己DIY的,但没有楼主的大,也配了好多图形特效字幕 ...

我这个都是普通图形字幕 没有特效
回复

使用道具 举报

主题
38
活跃值
912
热心值
28
盘币
3823
注册时间
2018-11-4
最后登录
2019-10-21
在线时间
275 小时

老会员勋章长期在线阳光心情普通精华爱心满满灌水之王

发表于 2019-10-8 09:14:32 | 显示全部楼层
有没有粤语音轨,粤语带简体字就好了
粤语港剧
回复

使用道具 举报

主题
58
活跃值
619
热心值
20
盘币
293
注册时间
2017-8-5
最后登录
2019-10-21
在线时间
418 小时
 楼主| 发表于 2019-10-8 10:25:31 来自手机 | 显示全部楼层
udcalsfi 发表于 2019-10-8 09:14
有没有粤语音轨,粤语带简体字就好了

有音轨 没字幕
回复

使用道具 举报

主题
38
活跃值
912
热心值
28
盘币
3823
注册时间
2018-11-4
最后登录
2019-10-21
在线时间
275 小时

老会员勋章长期在线阳光心情普通精华爱心满满灌水之王

发表于 2019-10-8 10:33:01 | 显示全部楼层

我是说粤语的音轨配国语的字幕,当然不是说粤语的字幕,我还没有见过电影电视剧有粤语的字幕的
粤语港剧
回复

使用道具 举报

主题
58
活跃值
619
热心值
20
盘币
293
注册时间
2017-8-5
最后登录
2019-10-21
在线时间
418 小时
 楼主| 发表于 2019-10-8 10:34:48 来自手机 | 显示全部楼层
本帖最后由 皓月鳴響 于 2019-10-8 10:42 编辑
逝去的青春 发表于 2019-10-8 09:58
高档次的人只需要一条英语一条英文,搞那么乱七八糟的花样没用,况且楼主的视频不知道哪里捡来的劣质资源 ...


麻烦你不了解情况别到处装逼 这电影就是16:9拍摄的 2.35:1是遮幅的 不信自己对比上下画面有没有多内容还是拉出来的 还有你不感兴趣就不要到处回帖 我也对你这种不发资源的所谓高档次的人的回复不感兴趣
回复

使用道具 举报

主题
38
活跃值
912
热心值
28
盘币
3823
注册时间
2018-11-4
最后登录
2019-10-21
在线时间
275 小时

老会员勋章长期在线阳光心情普通精华爱心满满灌水之王

发表于 2019-10-8 10:36:34 | 显示全部楼层
逝去的青春 发表于 2019-10-8 09:58
高档次的人只需要一条英语一条英文,搞那么乱七八糟的花样没用,况且楼主的视频不知道哪里捡来的劣质资源 ...

高端人士只需要一条英语音轨,字幕都是多余的
粤语港剧
回复

使用道具 举报

主题
58
活跃值
619
热心值
20
盘币
293
注册时间
2017-8-5
最后登录
2019-10-21
在线时间
418 小时
 楼主| 发表于 2019-10-8 10:37:40 来自手机 | 显示全部楼层
udcalsfi 发表于 2019-10-8 10:33
我是说粤语的音轨配国语的字幕,当然不是说粤语的字幕,我还没有见过电影电视剧有粤语的字幕的 ...

那肯定有啊 视频信息写着呢 第一条字幕就是
回复

使用道具 举报

主题
0
活跃值
3082
热心值
0
盘币
374
注册时间
2017-9-29
最后登录
2019-10-21
在线时间
82 小时
发表于 2019-10-8 10:44:26 | 显示全部楼层
厉害,会不会太可怕了了,笑
回复

使用道具 举报

主题
58
活跃值
619
热心值
20
盘币
293
注册时间
2017-8-5
最后登录
2019-10-21
在线时间
418 小时
 楼主| 发表于 2019-10-8 10:53:33 来自手机 | 显示全部楼层
本帖最后由 皓月鳴響 于 2019-10-8 10:55 编辑
逝去的青春 发表于 2019-10-8 09:58
高档次的人只需要一条英语一条英文,搞那么乱七八糟的花样没用,况且楼主的视频不知道哪里捡来的劣质资源 ...


不过你要说那个4k HDR 112g的确实是遮幅的 我这个是SDR满屏 不一样的
回复

使用道具 举报

主题
58
活跃值
619
热心值
20
盘币
293
注册时间
2017-8-5
最后登录
2019-10-21
在线时间
418 小时
 楼主| 发表于 2019-10-8 11:15:37 来自手机 | 显示全部楼层
逝去的青春 发表于 2019-10-8 10:55
我说4K源码是遮幅版没有说错,有满屏版2160p只有一种可能就是用1080p满屏版压制的。看不惯你乱忽悠人,当 ...

行了既然是假的我删帖
回复

使用道具 举报

主题
194
活跃值
3006
热心值
442
盘币
811
注册时间
2016-9-18
最后登录
2019-10-22
在线时间
521 小时

阳光心情老会员勋章普通精华长期在线资源组成员爱心满满动漫达人威严满满鼎力支持

发表于 2019-10-8 11:23:28 | 显示全部楼层
阿婆主是一个爱资源爱折腾的同道中人!
回复

使用道具 举报

您需要登录后才可以回帖 登录 | 加入论坛

本版积分规则

免责声明:本站所有资源均收集自互联网,没有提供影片资源存储,也未参与录制、上传。若本站收录的资源涉及您的版权或知识产权或其他利益,请附上版权证明邮件告知,在收到邮件后24小时内删除。

Copyright © 2012 [盘乐网] 管理员邮箱:admin#pan6.com(#=@)

站长信箱|sitemap|手机版|小黑屋|百度统计|盘乐网 ( 粤ICP备18120611号 )

快速回复 返回顶部 返回列表