盘乐网

 找回密码
 加入论坛

QQ登录

只需一步,快速开始

查看: 105|回复: 3

[冒险] [百度云][1992][長靴をはいた猫の冒険(神剑飞天猫)(长靴子猫的梦幻冒险)(库斯特传奇童话之旅)][第10话][国语无字][MP4/330M][720P]

[复制链接]

主题
4
活跃值
212
热心值
1
盘币
73
注册时间
2016-8-23
最后登录
1970-1-1
在线时间
14 小时
发表于 2020-5-21 23:28:24 | 显示全部楼层 |阅读模式
请尊重分享者,本资源仅限交流未经楼主同意严禁转载或盈利,违者封号处理!

360截图20200521232546472.jpg
神剑飞天猫 穿靴子的猫  汉斯历险记 长靴子猫 库斯特传奇(1992)
又名:Adventures of Puss-in-Boots 长靴猫的冒险
穿靴子的猫/
库斯特传奇/
地区:日本
类型:动画
集数:共 26 集
导演:石崎すすむ
剧集介绍
神剑飞天猫_库斯特传奇童话之旅-01长靴猫的诞生
神剑飞天猫_库斯特传奇童话之旅-02睡美人
神剑飞天猫_库斯特传奇童话之旅-03仙履奇缘
神剑飞天猫_库斯特传奇童话之旅-04白雪公主
神剑飞天猫_库斯特传奇童话之旅-05七色的海、人鱼公主
神剑飞天猫_库斯特传奇童话之旅-06国王的新衣
神剑飞天猫_库斯特传奇童话之旅-07阿拉丁神灯
神剑飞天猫_库斯特传奇童话之旅-08阿里巴巴与四十大盗
神剑飞天猫_库斯特传奇童话之旅-09友情的可贵
神剑飞天猫_库斯特传奇童话之旅-10魔豆
神剑飞天猫_库斯特传奇童话之旅-11梦幻骑士堂吉诃德
神剑飞天猫_库斯特传奇童话之旅-12死亡预言
神剑飞天猫_库斯特传奇童话之旅-13天鹅湖
神剑飞天猫_库斯特传奇童话之旅-14真假王子
神剑飞天猫_库斯特传奇童话之旅-15伊凡及会魔法的马
神剑飞天猫_库斯特传奇童话之旅-16不可思议的小提琴
神剑飞天猫_库斯特传奇童话之旅-17冰宫魔女
神剑飞天猫_库斯特传奇童话之旅-18糖果屋
神剑飞天猫_库斯特传奇童话之旅-19正义之箭
神剑飞天猫_库斯特传奇童话之旅-20国王的耳朵
神剑飞天猫_库斯特传奇童话之旅-21差劲的新娘
神剑飞天猫_库斯特传奇童话之旅-24吸血鬼
神剑飞天猫_库斯特传奇童话之旅-26莎拉公主醒了
资料转载自https://user.qzone.qq.com/2316661806/blog/1587925987中古珍藏完整版
General
Complete name            : G:\神剑飞天猫 穿靴子的猫 库斯特传奇(1992)ファンタジーアドベンチャー 長靴をはいた猫の冒険 (长靴子猫的梦幻冒险)
Format                                   : MPEG-4
Format profile                           : Base Media
Codec ID                                 : isom (isom/iso2/avc1/mp41)
File size                                : 331 MiB
Duration                                 : 22 min 57 s
Overall bit rate                         : 2 015 kb/s
Writing application                      : Lavf57.83.100
Video
ID                                       : 1
Format                                   : AVC
Format/Info                              : Advanced Video Codec
Format profile                           : Main@L3.1
Format settings                          : CABAC / 4 Ref Frames
Format settings, CABAC                   : Yes
Format settings, Reference frames        : 4 frames
Codec ID                                 : avc1
Codec ID/Info                            : Advanced Video Coding
Duration                                 : 22 min 57 s
Bit rate                                 : 1 874 kb/s
Width                                    : 1 280 pixels
Height                                   : 720 pixels
Display aspect ratio                     : 16:9
Frame rate mode                          : Constant
Frame rate                               : 24.000 FPS
Color space                              : YUV
Chroma subsampling                       : 4:2:0
Bit depth                                : 8 bits
Scan type                                : Progressive
Bits/(Pixel*Frame)                       : 0.085
Stream size                              : 309 MiB (93%)
Writing library                          : x264 core 148 r2762 90a61ec
Encoding settings                        : cabac=1 / ref=1 / deblock=1:0:0 / analyse=0x1:0x111 / me=hex / subme=6 / psy=0 / mixed_ref=0 / me_range=16 / chroma_me=1 / trellis=1 / 8x8dct=0 / cqm=0 / deadzone=21,11 / fast_pskip=1 / chroma_qp_offset=0 / threads=12 / lookahead_threads=2 / sliced_threads=0 / nr=0 / decimate=1 / interlaced=0 / bluray_compat=0 / constrained_intra=0 / bframes=3 / b_pyramid=2 / b_adapt=1 / b_bias=0 / direct=1 / weightb=1 / open_gop=0 / weightp=1 / keyint=250 / keyint_min=24 / scenecut=40 / intra_refresh=0 / rc_lookahead=30 / rc=abr / mbtree=1 / bitrate=1874 / ratetol=1.0 / qcomp=0.60 / qpmin=0 / qpmax=69 / qpstep=4 / ip_ratio=1.40 / aq=2:1.00
Color range                              : Limited
Transfer characteristics                 : BT.709
Matrix coefficients                      : BT.709
Codec configuration box                  : avcC
Audio
ID                                       : 2
Format                                   : AAC LC
Format/Info                              : Advanced Audio Codec Low Complexity
Codec ID                                 : mp4a-40-2
Duration                                 : 22 min 57 s
Bit rate mode                            : Constant
Bit rate                                 : 128 kb/s
Channel(s)                               : 2 channels
Channel layout                           : L R
Sampling rate                            : 44.1 kHz
Frame rate                               : 43.066 FPS (1024 SPF)
Compression mode                         : Lossy
Stream size                              : 21.0 MiB (6%)
Default                                  : Yes
Alternate group                          : 1




绝版动画,几乎没再见过,本人收藏的这一集是花费太长时间校验的日语OP国语剧情波兰语ED修复重制版
希望哪位高人如有该动画VHS录影带或者VCD可以告知一下,谢谢



点击进入百度网盘下载(←购买前请先验证分享链接是否有效)

此处内容付费可见

此处内容需要向楼主支付盘币或购买VIP才能显示 已有 2 人购买 

支付 10 盘币 升级VIP
免责申明 - 论坛版权1、本站所有资源均来自会员分享或网络收集整理,仅供会员交流学习,禁用商业用途或盈利,下载后请在24小时之内删除;
2、本站(www.pan6.com)支持正版,本资源版权归版权方所有,观看或阅读请到相应机构购买正版资源;
3、本站资源均来源于网络,本站不参与录制、上传,如本帖侵犯到任何版权问题,请立即告知本站(admin#pan6.com(#=@)),本站将及时予与删除并致以最深的歉意;

点赞

参与人数 1热心值 +1

给力资源,感谢分享! + 1

查看点赞详情

楼主热贴推荐
BT资源无法下载:戳这里,不会发帖、金币相关等新手问题:戳这里
回复

拉黑 使用道具 举报

为保留有用回复信息,此处有 2 个购买者的感谢留言已隐藏

主题
5
活跃值
5009
热心值
0
盘币
182
注册时间
2018-1-8
最后登录
2020-6-3
在线时间
47 小时
发表于 2020-5-22 00:01:50 | 显示全部楼层
感谢楼主分享资源
回复

拉黑 使用道具 举报

严禁灌水、讽刺、挖苦、辱骂分享者行为。回复前请详读:点击进入 理性回复,以免永久封禁。
您需要登录后才可以回帖 登录 | 加入论坛

本版积分规则

免责声明:本站所有资源均收集自互联网,没有提供影片资源存储,也未参与录制、上传。若本站收录的资源涉及您的版权或知识产权或其他利益,请附上版权证明邮件告知,在收到邮件后24小时内删除。

Copyright © 2012 [盘乐网] 管理员邮箱:admin#pan6.com(#=@)

站长信箱|sitemap|手机版|小黑屋|百度统计|盘乐网 ( 粤ICP备18120611号 )

快速回复 返回顶部 返回列表