盘乐网

 找回密码
 加入论坛

QQ登录

只需一步,快速开始

玩转论坛 (→_→) :如何发布和购买售价贴?如何给作者资源评分?购买主题前先查看分享链接是否有效!人人分享,社区资源更丰富,勿做伸手党!
查看: 1205|回复: 35

[TS抢先版] [美国][2017][寻梦环游记/Coco][喜剧][西班牙语无字][MP4/1.36GB][TC枪版][豆瓣9.4分]

[复制链接]

主题
10
积分
676
盘币
2687
热心值
-6
注册时间
2017-2-3
最后登录
2017-12-10
在线时间
40 小时

阳光心情老会员勋章我是土豪

发表于 2017-12-2 20:17:09 | 显示全部楼层 |阅读模式



导演: 李·昂克里奇 / 阿德里安·莫利纳
编剧: 李·昂克里奇 / 阿德里安·莫利纳 / 马修·奥尔德里奇 / 詹森·卡茨
主演: 安东尼·冈萨雷斯 / 盖尔·加西亚·贝纳尔 / 本杰明·布拉特 / 阿兰纳·乌巴奇 / 芮妮·维克托 / 更多...
类型: 喜剧 / 动画 / 音乐 / 家庭 / 冒险
制片国家/地区: 美国
语言: 英语 / 西班牙语
上映日期: 2017-11-24(中国内地) / 2017-10-20(莫雷利亚电影节) / 2017-11-22(美国)
片长: 109分钟
又名: 可可夜总会(台) / 玩转极乐园(港) / 墨西哥亡灵节 / 亡灵节总动员 / 可可
IMDb链接: tt2380307


寻梦环游记的剧情简介 · · · · · ·

  小男孩米格(安东尼·冈萨雷斯 Anthony Gonzalez 配音)一心梦想成为音乐家,更希望自己能和偶像歌神德拉库斯(本杰明·布拉特 Benjamin Bratt 配音)一样,创造出打动人心的音乐,但他的家族却世代禁止族人接触音乐。米格痴迷音乐,无比渴望证明自己的音乐才能,却因为一系列怪事,来到了五彩斑斓又光怪陆离的神秘世界。在那里,米格遇见了魅力十足的落魄乐手埃克托(盖尔·加西亚·贝纳尔 Gael García Bernal 配音),他们一起踏上了探寻米格家族不为人知往事的奇妙之旅,并开启了一段震撼心灵、感动非凡、永生难忘的旅程

  1. General
  2. Unique ID                      : 253385536374422374342564518306603816789 (0xBEA0477982002CBE8986ED7FE1AB5755)
  3. Complete name                  : D:\迅雷下载\Tayna.Kokokoko.2O17.D.TS.14OOMB_KOSHARA\Tayna.Kokokoko.2O17.D.TS.14OOMB_KOSHARA.mkv
  4. Format                         : Matroska
  5. Format version                 : Version 4 / Version 2
  6. File size                      : 1.36 GiB
  7. Duration                       : 1 h 35 min
  8. Overall bit rate               : 2 037 kb/s
  9. Encoded date                   : UTC 2017-12-02 11:40:19
  10. Writing application            : mkvmerge v15.0.0 ('Duel with the Devil') 64-bit
  11. Writing library                : libebml v1.3.5 + libmatroska v1.4.5

  12. Video
  13. ID                             : 1
  14. Format                         : MPEG-4 Visual
  15. Format profile                 : Advanced Simple@L5
  16. Format settings, BVOP          : 2
  17. Format settings, QPel          : No
  18. Format settings, GMC           : No warppoints
  19. Format settings, Matrix        : Default (MPEG)
  20. Codec ID                       : V_MS/VFW/FOURCC / XVID
  21. Codec ID/Hint                  : XviD
  22. Duration                       : 1 h 35 min
  23. Bit rate                       : 1 651 kb/s
  24. Width                          : 720 pixels
  25. Height                         : 288 pixels
  26. Display aspect ratio           : 2.500
  27. Frame rate mode                : Constant
  28. Frame rate                     : 23.976 (24000/1001) FPS
  29. Color space                    : YUV
  30. Chroma subsampling             : 4:2:0
  31. Bit depth                      : 8 bits
  32. Scan type                      : Progressive
  33. Compression mode               : Lossy
  34. Bits/(Pixel*Frame)             : 0.332
  35. Stream size                    : 1.10 GiB (81%)
  36. Writing library                : XviD 1.2.1 (UTC 2008-12-04)
  37. Default                        : Yes
  38. Forced                         : No

  39. Audio
  40. ID                             : 2
  41. Format                         : AC-3
  42. Format/Info                    : Audio Coding 3
  43. Mode extension                 : CM (complete main)
  44. Format settings, Endianness    : Big
  45. Codec ID                       : A_AC3
  46. Duration                       : 1 h 35 min
  47. Bit rate mode                  : Constant
  48. Bit rate                       : 384 kb/s
  49. Channel(s)                     : 2 channels
  50. Channel positions              : Front: L R
  51. Sampling rate                  : 48.0 kHz
  52. Frame rate                     : 31.250 FPS (1536 spf)
  53. Compression mode               : Lossy
  54. Stream size                    : 263 MiB (19%)
  55. Default                        : Yes
  56. Forced                         : No

复制代码

Tayna.Kokokoko.2O17.D.TS.14OOMB_KOSHARA.mkv.jpg
下载地址[把PDF改成MKV]
链接:https://pan.baidu.com/s/1pLtAuiJ 密码:
购买主题 已有 26 人购买  本主题需向作者支付 8 盘币 才能浏览     赞助VIP可享受免购买查看特权

评分

参与人数 2盘币 +2 热心值 +2 收起 理由
萧伯纳大大 + 1 + 1
天策 + 1 + 1 看私信

查看全部评分

BT资源无法下载:戳这里,不会发帖、盘币相关等新手问题:戳这里
回复

使用道具 举报

主题
0
积分
38
盘币
480
热心值
0
注册时间
2017-10-28
最后登录
2017-12-15
在线时间
2 小时
发表于 昨天 16:36 | 显示全部楼层
baiduyunpanmiaxiexie
回复 支持 反对

使用道具 举报

主题
0
积分
5
盘币
1
热心值
0
注册时间
2017-12-14
最后登录
2017-12-14
在线时间
0 小时
发表于 昨天 13:51 | 显示全部楼层
不错不错不错布偶
回复 支持 反对

使用道具 举报

主题
0
积分
13
盘币
1
热心值
0
注册时间
2017-12-12
最后登录
2017-12-13
在线时间
0 小时
发表于 前天 14:37 | 显示全部楼层
感谢楼主无私的分享与奉献!
回复 支持 反对

使用道具 举报

主题
1
积分
61
盘币
147
热心值
1
注册时间
2017-12-6
最后登录
2017-12-14
在线时间
1 小时
发表于 3 天前 | 显示全部楼层
感谢楼主无私的分享与奉献!
回复 支持 反对

使用道具 举报

主题
0
积分
11
盘币
3
热心值
0
注册时间
2016-6-12
最后登录
1970-1-1
在线时间
0 小时
发表于 3 天前 | 显示全部楼层
楼主加油,我们都看好你哦。

我的币还不够呢。
回复 支持 反对

使用道具 举报

主题
0
积分
44
盘币
129
热心值
0
注册时间
2017-11-29
最后登录
2017-12-13
在线时间
1 小时
发表于 6 天前 | 显示全部楼层
听说超级好看 感谢楼主分享
回复 支持 反对

使用道具 举报

主题
0
积分
201
盘币
15
热心值
0
注册时间
2017-11-25
最后登录
2017-12-15
在线时间
2 小时
发表于 6 天前 | 显示全部楼层
真是被感动的痛哭流涕……
回复 支持 反对

使用道具 举报

主题
1
积分
1360
盘币
385
热心值
1
注册时间
2017-2-9
最后登录
2017-12-15
在线时间
34 小时
发表于 7 天前 | 显示全部楼层
多谢分享!
回复

使用道具 举报

主题
0
积分
5
盘币
193
热心值
0
注册时间
2017-12-7
最后登录
2017-12-7
在线时间
0 小时
发表于 2017-12-7 20:31:48 | 显示全部楼层
感谢楼主无私的分享与奉献!
回复 支持 反对

使用道具 举报

主题
0
积分
96
盘币
455
热心值
0
注册时间
2017-9-19
最后登录
2017-12-5
在线时间
4 小时
发表于 2017-12-5 21:21:15 | 显示全部楼层
不错66666666
回复 支持 反对

使用道具 举报

主题
1
积分
1378
盘币
533
热心值
0
注册时间
2015-8-3
最后登录
2017-12-15
在线时间
60 小时
发表于 2017-12-5 11:42:51 | 显示全部楼层
感谢楼主无私的分享与奉献!
回复 支持 反对

使用道具 举报

主题
0
积分
84
盘币
403
热心值
0
注册时间
2017-10-21
最后登录
2017-12-7
在线时间
3 小时
发表于 2017-12-5 10:39:30 | 显示全部楼层
强烈支持楼主ing……
回复 支持 反对

使用道具 举报

主题
0
积分
180
盘币
295
热心值
0
注册时间
2017-9-27
最后登录
2017-12-15
在线时间
9 小时
发表于 2017-12-5 09:17:10 | 显示全部楼层
据说不错,谢谢,收了。
回复 支持 反对

使用道具 举报

主题
0
积分
8
盘币
0
热心值
0
注册时间
2017-12-3
最后登录
2017-12-3
在线时间
0 小时
发表于 2017-12-3 23:51:39 | 显示全部楼层
好的,谢谢谢谢谢谢谢谢谢谢
回复 支持 反对

使用道具 举报

主题
1
积分
24
盘币
1
热心值
0
注册时间
2017-12-3
最后登录
2017-12-3
在线时间
0 小时
发表于 2017-12-3 22:20:56 来自手机 | 显示全部楼层
我也说一句这么高##
回复 支持 反对

使用道具 举报

主题
0
积分
45
盘币
454
热心值
0
注册时间
2017-8-21
最后登录
2017-12-3
在线时间
2 小时
发表于 2017-12-3 22:16:38 | 显示全部楼层

都是是都是都是是都是是
回复 支持 反对

使用道具 举报

主题
0
积分
39
盘币
0
热心值
0
注册时间
2017-12-3
最后登录
2017-12-12
在线时间
2 小时
发表于 2017-12-3 21:24:55 | 显示全部楼层
真是难得给力的资源啊。
回复 支持 反对

使用道具 举报

主题
0
积分
1240
盘币
623
热心值
-1
注册时间
2016-6-16
最后登录
2017-12-14
在线时间
45 小时
发表于 2017-12-3 17:35:39 | 显示全部楼层
都是是都是都是是都是是
回复 支持 反对

使用道具 举报

主题
0
积分
33
盘币
158
热心值
0
注册时间
2017-12-3
最后登录
2017-12-12
在线时间
1 小时
发表于 2017-12-3 15:00:58 | 显示全部楼层
感谢楼主
回复

使用道具 举报

点击按钮快速添加回复内容: 感谢 给力 支持 高兴 激动 加油 淡定 顶贴 路过 感动
您需要登录后才可以回帖 登录 | 加入论坛

本版积分规则

免责声明:本站所有资源均收集自互联网,没有提供影片资源存储,也未参与录制、上传。若本站收录的资源涉及您的版权或知识产权或其他利益,请附上版权证明邮件告知,在收到邮件后72小时内删除。

Copyright © 2012 [盘乐网] 管理员邮箱:admin#pan6.com(#=@)

站长信箱|sitemap|手机版|小黑屋|百度统计|盘乐网 ( 沪ICP备16023927号 )

快速回复 返回顶部 返回列表